The Pentangle - Sweet Child (1968) Reissue 1988

New Download Links
Speed
 kbps
 kbps
 kbps

The Pentangle - Sweet Child (1968) Reissue 1988
EAC | FLAC | Image (Cue&Log) ~ 388 Mb (incl 5%) | Mp3 (CBR320) ~ 175 Mb (incl 5%) | Scans ~ 109 Mb
Genre: British Folk, Folk-Rock, Psychedelic | Label: Line Music | # TACD 9.00552 O | Time: 01:13:05

Sweet Child, released in 1968, at the peak of Pentangle's career, is probably the most representative of their work. A sprawling two-record set, half recorded in the studio and half live at the Royal Festival Hall, showcases just how versatile Pentangle was in their unique brand of English folk, jazz, Celtic, blues, and pop styles. Some of the live covers are easily their finest performances. Furry Lewis' "Turn Your Money Green," sung by the delightful Jacqui McShee, swings sweetly, buttressed of course by John Renbourn and Bert Jansch's guitar tapestry. Charlie Mingus' "Haitian Flight Song" features a great solo by bassist Danny Thompson, who was easily one of the finest musicians to grace the instrument. The studio tracks are uniformly excellent as well, especially "The Time Has Come," which turns waltz time inside out. McShee, Renbourn, and Jansch all turn in career performances on this track. But these examples merely scratch the surface of Pentangle's peak. In all, Sweet Child is an awesome and delightful collection, and probably their finest hour.

Review by Matthew Greenwald, Allmusic.com




Tracklist:

01. Market Song (04:17)
02. No More My Lord (04:37)
03. Turn Your Money Green (02:44)
04. Haitian Fight Song (03:41)
05. A Woman Like You (04:11)
06. Three Dances (05:02)
07. Watch the Stars (03:28)
08. So Early in the Spring (03:22)
09. No Exit (02:24)
10. The Time Has Come (04:04)
11. Bruton Town (06:19)
12. Sweet Child (05:14)
13. I Loved a Lass (02:41)
14. Three Part Thing (02:27)
15. Sovay (02:50)
16. In Time (05:09)
17. In Your Mind (02:16)
18. I've Got a Feeling (04:27)
19. The Trees They Do Grow High (03:47)


EAC log
Exact Audio Copy V1.0 beta 6 from 9. April 2015

EAC extraction logfile from 23. April 2015, 18:44

The Pentangle / Sweet Child

Used drive : PLEXTOR DVDR PX-891SA Adapter: 0 ID: 2

Read mode : Secure
Utilize accurate stream : Yes
Defeat audio cache : Yes
Make use of C2 pointers : No

Read offset correction : 6
Overread into Lead-In and Lead-Out : No
Fill up missing offset samples with silence : Yes
Delete leading and trailing silent blocks : No
Null samples used in CRC calculations : Yes
Used interface : Installed external ASPI interface

Used output format : User Defined Encoder
Selected bitrate : 320 kBit/s
Quality : High
Add ID3 tag : No
Command line compressor : C:Program FilesExact Audio Copy 1.0 b6Exact Audio CopyFlacflac.exe
Additional command line options : -V -8 -T "Date=%year%" -T "Genre=%genre%" %source% TOC of the extracted CD

Track | Start | Length | Start sector | End sector
---------------------------------------------------------
1 | 0:00.00 | 4:17.25 | 0 | 19299
2 | 4:17.25 | 4:37.12 | 19300 | 40086
3 | 8:54.37 | 2:44.38 | 40087 | 52424
4 | 11:39.00 | 3:41.07 | 52425 | 69006
5 | 15:20.07 | 4:11.43 | 69007 | 87874
6 | 19:31.50 | 5:02.25 | 87875 | 110549
7 | 24:34.00 | 3:28.25 | 110550 | 126174
8 | 28:02.25 | 3:22.50 | 126175 | 141374
9 | 31:25.00 | 2:24.12 | 141375 | 152186
10 | 33:49.12 | 4:04.63 | 152187 | 170549
11 | 37:54.00 | 6:19.00 | 170550 | 198974
12 | 44:13.00 | 5:14.00 | 198975 | 222524
13 | 49:27.00 | 2:41.00 | 222525 | 234599
14 | 52:08.00 | 2:27.00 | 234600 | 245624
15 | 54:35.00 | 2:50.00 | 245625 | 258374
16 | 57:25.00 | 5:09.00 | 258375 | 281549
17 | 62:34.00 | 2:16.00 | 281550 | 291749
18 | 64:50.00 | 4:27.00 | 291750 | 311774
19 | 69:17.00 | 3:47.00 | 311775 | 328799 Range status and errors

Selected range

Filename L:Lossless TempPentangle1968. The Pentangle - Sweet Child (1988 Line Music, TACD 9.00552 O, Germany)The Pentangle - Sweet Child.wav

Peak level 83.5 %
Extraction speed 9.5 X
Range quality 100.0 %
Test CRC D9ED48A6
Copy CRC D9ED48A6
Copy OK

No errors occurred


AccurateRip summary

Track 1 accurately ripped (confidence 20) [B00CFE05] (AR v2)
Track 2 accurately ripped (confidence 20) [E26785E6] (AR v2)
Track 3 accurately ripped (confidence 20) [23D17306] (AR v2)
Track 4 accurately ripped (confidence 20) [F0A64A99] (AR v2)
Track 5 accurately ripped (confidence 20) [9219CE75] (AR v2)
Track 6 accurately ripped (confidence 19) [E0A49B9F] (AR v2)
Track 7 accurately ripped (confidence 20) [40F0BBB4] (AR v2)
Track 8 accurately ripped (confidence 20) [AABD617E] (AR v2)
Track 9 accurately ripped (confidence 20) [4C4D0CDE] (AR v2)
Track 10 accurately ripped (confidence 20) [0B294C7A] (AR v2)
Track 11 accurately ripped (confidence 20) [C16F0E17] (AR v2)
Track 12 accurately ripped (confidence 20) [4F23E89F] (AR v2)
Track 13 accurately ripped (confidence 20) [F6561444] (AR v2)
Track 14 accurately ripped (confidence 20) [D843E9F4] (AR v2)
Track 15 accurately ripped (confidence 20) [CE97C93D] (AR v2)
Track 16 accurately ripped (confidence 20) [4DFC76D5] (AR v2)
Track 17 accurately ripped (confidence 20) [DD0952E4] (AR v2)
Track 18 accurately ripped (confidence 20) [6761492A] (AR v2)
Track 19 accurately ripped (confidence 20) [DB817CA0] (AR v2)

All tracks accurately ripped

End of status report

==== Log checksum E48D89E79EF3E7DEE766705F7C580A7C5AACD1BAB02B74AF06944D9CF1AF9ED5 ====

DR log
foobar2000 1.3.8 / Dynamic Range Meter 1.1.1
log date: 2015-05-09 13:24:43

--------------------------------------------------------------------------------
Analyzed: The Pentangle / Sweet Child
--------------------------------------------------------------------------------

DR Peak RMS Duration Track
--------------------------------------------------------------------------------
DR10 -2.80 dB -17.33 dB 4:17 01-Market Song
DR14 -2.11 dB -21.75 dB 4:37 02-No More My Lord
DR12 -6.01 dB -22.07 dB 2:45 03-Turn Your Money Green
DR12 -5.35 dB -22.47 dB 3:41 04-Haitian Fight Song
DR11 -4.08 dB -18.72 dB 4:12 05-A Woman Like You
DR10 -5.86 dB -22.58 dB 5:02 06-Three Dances
DR11 -6.87 dB -23.12 dB 3:28 07-Watch the Stars
DR11 -6.94 dB -23.04 dB 3:23 08-So Early in the Spring
DR12 -7.85 dB -24.68 dB 2:24 09-No Exit
DR10 -4.88 dB -19.53 dB 4:05 10-The Time Has Come
DR12 -4.97 dB -19.92 dB 6:19 11-Bruton Town
DR10 -1.56 dB -14.51 dB 5:14 12-Sweet Child
DR11 -3.87 dB -17.53 dB 2:41 13-I Loved a Lass
DR11 -2.68 dB -16.35 dB 2:27 14-Three Part Thing
DR10 -3.43 dB -16.63 dB 2:50 15-Sovay
DR13 -2.48 dB -18.51 dB 5:09 16-In Time
DR11 -4.27 dB -17.90 dB 2:16 17-In Your Mind
DR10 -2.26 dB -16.01 dB 4:27 18-I've Got a Feeling
DR11 -4.43 dB -19.16 dB 3:47 19-The Trees They Do Grow High
--------------------------------------------------------------------------------

Number of tracks: 19
Official DR value: DR11

Samplerate: 44100 Hz
Channels: 2
Bits per sample: 16
Bitrate: 708 kbps
Codec: FLAC
================================================================================



All thanks to original releaser - Swamp Fox





Jacqui Mcshee Pentangle | 1968 | This Is The Magic Mixture 1968 | Salut Les Copains 1959 1968 | Va Merritone Rocksteady 1966 To 1968 10 Rare Singles Set | Bullet Execution Reissue | Magma Th Anniversary Reissue Cd Flac | Frank Zappa Ahead Of Their Time Reissue | Kim Wilde Remastered Reissue By Cherry Pop 2009 | The Madness 1988
The Pentangle - Sweet Child (1968) Reissue 1988 Torrent Download with keygen, crack, serial, dvdrip, hdrip, HD, 720p, 2014, 2015
Maybe you like: