Manu Dibango - African Soul: The Very Best Of Manu Dibango (1997)

New Download Links
Speed
 kbps
 kbps
 kbps

Manu Dibango - African Soul: The Very Best Of Manu Dibango (1997)
EAC | FLAC | Tracks (Cue&Log) ~ 590 Mb (incl 5%) | Mp3 (CBR320) ~ 211 Mb (incl 5%) | Scans included
Genre: African Jazz, Makossa, Funk, World Fusion | Label: Mercury | # 534766-2 | Time: 01:14:04

This retrospective of the legendary Cameroon saxophonist Manu Dibango includes 10 prime examples of his eclectic style, including his internationally successful hit, "Soul Makossa", the percolating percussion and layered brass of "Africadelic", and the '80s disco of "Sun Explosion".


This is a pretty complete retrospective disc that is broken down into the following: The Nino Ferrer Years(1967-1971) featuring seven tracks from his France-African connection, The Soul Makossa Years(1972-1975) with three tracks that are pure Afro-jazz-funk and the introduction internationally of the smash "Soul Makossa," The Ivory Coast Years (1976-1978) where Manu Dibango returns to his roots in mother Africa, The Jamaican Experience(1979-1984)where he mixed it up with Sly & Robbie Shakespeare, Bob Marley, Stevie Wonder and Chris Blackwell and The Hats Off Years(1985-1997)that features his acid-jazz tracks with collaborations with Africans King Sunny Ade, Youssou N'Dour and Ladysmith Black Mambazo amongst others of diverse musical backgrounds like Peter Gabriel and Sinead O'Connor. The first time, many years ago when I first heard "Soul Makossa" I was floored and hooked. Besides the I-love-it-immediately sound of "Soul Makossa" their are other outstanding tracks including the very similar but much faster tempo of "Big Blow" that will blow your socks off, the historical recording "Dikalo" which was a forerunner and echoes "Soul Makossa," the Latin-influenced "Hot Chicken" that features Dibango's blistering sax, the childhood memories inspired song( a river in Cameroon), "Wouri, " that features Manu on alto sax and piano with nice orchestration,"Goro City" that features the reaggae-driven beat of Jamaican beatmiesters Sly and Robbie Shakespeare that fuses well with the Lion of Cameroons sax,"Senga Abele" an often sampled song that mixes the rap of M.C. Mello with the funky-cool sax of Dibango and African singers for a true world beat sound and finally the classic title track from the excellent disc "Wakafrika" that will have your head bopping and feat aching to move. Manu Dibango has always been ahead of the musical curve and this disc proves just that. It would be hard to find a grittier-funky sound out there. Check it out if you like jazz, funk or world music; it's all here on this disc.

Review by Enrique Torres, Amazon.com





Tracklist:

01. Dikalo (Salt Pop Corn) (04:08)
02. Soul Makossa (04:27)
03. Big Blow (05:42)
04. Wakafrika (04:48)
05. Soul Machine (03:03)
06. Je Veux Etre Noir (03:01)
07. Hot Chicken (04:25)
08. Sunday Morning (04:18)
09. From Congo (02:32)
10. Wouri (03:17)
11. Douala Serenade (06:24)
12. Bayam Sellam (05:56)
13. Goro City (08:35)
14. Choc 'n' Soul (05:15)
15. Senga Abele (08:06)


EAC log
Exact Audio Copy V1.0 beta 1 from 15. November 2010

EAC extraction logfile from 5. April 2015, 11:37

Manu Dibango / African Soul (The Very Best Of)

Used drive : TSSTcorpCDDVDW SH-224DB Adapter: 1 ID: 0

Read mode : Secure
Utilize accurate stream : Yes
Defeat audio cache : Yes
Make use of C2 pointers : No

Read offset correction : 6
Overread into Lead-In and Lead-Out : No
Fill up missing offset samples with silence : Yes
Delete leading and trailing silent blocks : No
Null samples used in CRC calculations : Yes
Used interface : Native Win32 interface for Win NT & 2000
Gap handling : Appended to previous track

Used output format : User Defined Encoder
Selected bitrate : 896 kBit/s
Quality : High
Add ID3 tag : No
Command line compressor : C:Program FilesExact Audio CopyFlacflac.exe
Additional command line options : -6 -V -T "ARTIST=%a" -T "TITLE=%t" -T "ALBUM=%g" -T "DATE=%y" -T "TRACKNUMBER=%n" -T "GENRE=%m" -T "COMMENT=%e" %s -o %d TOC of the extracted CD

Track | Start | Length | Start sector | End sector
---------------------------------------------------------
1 | 0:00.00 | 4:08.47 | 0 | 18646
2 | 4:08.47 | 4:27.58 | 18647 | 38729
3 | 8:36.30 | 5:42.42 | 38730 | 64421
4 | 14:18.72 | 4:48.63 | 64422 | 86084
5 | 19:07.60 | 3:03.15 | 86085 | 99824
6 | 22:11.00 | 3:01.70 | 99825 | 113469
7 | 25:12.70 | 4:25.05 | 113470 | 133349
8 | 29:38.00 | 4:18.00 | 133350 | 152699
9 | 33:56.00 | 2:32.72 | 152700 | 164171
10 | 36:28.72 | 3:17.68 | 164172 | 179014
11 | 39:46.65 | 6:24.07 | 179015 | 207821
12 | 46:10.72 | 5:56.00 | 207822 | 234521
13 | 52:06.72 | 8:35.73 | 234522 | 273219
14 | 60:42.70 | 5:15.10 | 273220 | 296854
15 | 65:58.05 | 8:06.32 | 296855 | 333336 Track 1

Filename C:New Folder1 - Dikalo (Salt Pop Corn).wav

Pre-gap length 0:00:02.00

Peak level 100.0 %
Extraction speed 1.9 X
Track quality 100.0 %
Test CRC 2AB858CF
Copy CRC 2AB858CF
Accurately ripped (confidence 11) [4B407AE8]
Copy OK

Track 2

Filename C:New Folder2 - Soul Makossa.wav

Peak level 100.0 %
Extraction speed 2.2 X
Track quality 100.0 %
Test CRC B3FE9066
Copy CRC B3FE9066
Accurately ripped (confidence 11) [43DC8862]
Copy OK

Track 3

Filename C:New Folder3 - Big Blow.wav

Pre-gap length 0:00:01.68

Peak level 100.0 %
Extraction speed 2.4 X
Track quality 100.0 %
Test CRC AC78B1AE
Copy CRC AC78B1AE
Accurately ripped (confidence 11) [CCFBB9CE]
Copy OK

Track 4

Filename C:New Folder4 - Wakafrika.wav

Pre-gap length 0:00:01.30

Peak level 100.0 %
Extraction speed 2.6 X
Track quality 100.0 %
Test CRC D02B97C5
Copy CRC D02B97C5
Accurately ripped (confidence 11) [10B75BEC]
Copy OK

Track 5

Filename C:New Folder5 - Soul Machine.wav

Pre-gap length 0:00:01.60

Peak level 100.0 %
Extraction speed 2.5 X
Track quality 100.0 %
Test CRC 8AA8CA3E
Copy CRC 8AA8CA3E
Accurately ripped (confidence 11) [A9A2A795]
Copy OK

Track 6

Filename C:New Folder6 - Je Veux Etre Noir.wav

Pre-gap length 0:00:02.03

Peak level 100.0 %
Extraction speed 2.0 X
Track quality 99.9 %
Test CRC F899B4C6
Copy CRC F899B4C6
Accurately ripped (confidence 11) [59175DEA]
Copy OK

Track 7

Filename C:New Folder7 - Hot Chicken.wav

Pre-gap length 0:00:01.48

Peak level 100.0 %
Extraction speed 2.9 X
Track quality 100.0 %
Test CRC 162EA6A9
Copy CRC 162EA6A9
Accurately ripped (confidence 11) [CC76B6A7]
Copy OK

Track 8

Filename C:New Folder8 - Sunday Morning.wav

Pre-gap length 0:00:01.40

Peak level 100.0 %
Extraction speed 2.4 X
Track quality 99.9 %
Test CRC 8232603E
Copy CRC 8232603E
Accurately ripped (confidence 11) [CD1DC30A]
Copy OK

Track 9

Filename C:New Folder9 - From Congo.wav

Pre-gap length 0:00:01.30

Peak level 100.0 %
Extraction speed 2.9 X
Track quality 100.0 %
Test CRC AB1189F6
Copy CRC AB1189F6
Accurately ripped (confidence 11) [0039DE63]
Copy OK

Track 10

Filename C:New Folder10 - Wouri.wav

Pre-gap length 0:00:01.45

Peak level 100.0 %
Extraction speed 2.4 X
Track quality 99.9 %
Test CRC FA60E77E
Copy CRC FA60E77E
Accurately ripped (confidence 11) [6F0E0338]
Copy OK

Track 11

Filename C:New Folder11 - Douala Serenade.wav

Pre-gap length 0:00:01.35

Peak level 100.0 %
Extraction speed 3.5 X
Track quality 100.0 %
Test CRC 17D0E932
Copy CRC 17D0E932
Accurately ripped (confidence 11) [D0FE6E2D]
Copy OK

Track 12

Filename C:New Folder12 - Bayam Sellam.wav

Pre-gap length 0:00:01.35

Peak level 100.0 %
Extraction speed 3.0 X
Track quality 99.9 %
Test CRC 7ECBE75E
Copy CRC 7ECBE75E
Accurately ripped (confidence 11) [96E9D43E]
Copy OK

Track 13

Filename C:New Folder13 - Goro City.wav

Pre-gap length 0:00:01.15

Peak level 100.0 %
Extraction speed 4.0 X
Track quality 100.0 %
Test CRC F0B93330
Copy CRC F0B93330
Accurately ripped (confidence 11) [29C50C52]
Copy OK

Track 14

Filename C:New Folder14 - Choc 'n' Soul.wav

Pre-gap length 0:00:01.25

Peak level 100.0 %
Extraction speed 3.1 X
Track quality 99.9 %
Test CRC 019DF258
Copy CRC 019DF258
Accurately ripped (confidence 11) [7B4932D0]
Copy OK

Track 15

Filename C:New Folder15 - Senga Abele.wav

Peak level 100.0 %
Extraction speed 4.3 X
Track quality 100.0 %
Test CRC AFD28A64
Copy CRC AFD28A64
Accurately ripped (confidence 11) [70C7CE89]
Copy OK All tracks accurately ripped

No errors occurred

End of status report

==== Log checksum BCF819744BAA0511BB902291422EC7D7FB6F31CF6A3186F655634648C0C3F936 ====

DR log
foobar2000 1.3.8 / Dynamic Range Meter 1.1.1
log date: 2015-05-11 12:29:47

--------------------------------------------------------------------------------
Analyzed: Manu Dibango / African Soul (The Very Best Of)
--------------------------------------------------------------------------------

DR Peak RMS Duration Track
--------------------------------------------------------------------------------
DR8 0.00 dB -9.28 dB 4:09 01-Dikalo (Salt Pop Corn)
DR8 0.00 dB -9.60 dB 4:28 02-Soul Makossa
DR7 0.00 dB -7.80 dB 5:43 03-Big Blow
DR7 0.00 dB -8.41 dB 4:49 04-Wakafrika
DR4 0.00 dB -5.51 dB 3:03 05-Soul Machine
DR5 0.00 dB -6.37 dB 3:02 06-Je Veux Etre Noir
DR7 0.00 dB -8.44 dB 4:25 07-Hot Chicken
DR6 0.00 dB -7.84 dB 4:18 08-Sunday Morning
DR6 0.00 dB -7.60 dB 2:33 09-From Congo
DR6 0.00 dB -7.04 dB 3:18 10-Wouri
DR7 0.00 dB -9.41 dB 6:24 11-Douala Serenade
DR7 0.00 dB -7.93 dB 5:56 12-Bayam Sellam
DR7 0.00 dB -8.20 dB 8:36 13-Goro City
DR7 0.00 dB -8.49 dB 5:15 14-Choc 'n' Soul
DR8 0.00 dB -10.26 dB 8:06 15-Senga Abele
--------------------------------------------------------------------------------

Number of tracks: 15
Official DR value: DR7

Samplerate: 44100 Hz
Channels: 2
Bits per sample: 16
Bitrate: 959 kbps
Codec: FLAC
================================================================================



All thanks to original releaser - alekow





Manu Dibango African Soul | Manu Dibango African Soul | Manu Dibango | Manu Dibango Ballad Emotion Torrent Download Torrent Download | Manu Carrasco | Manu Chau | Financial Accounting 10Th Edition Harrison Horngren Thomas Solution Manu | African Tribal Orchestra African Dream Lounge
Manu Dibango - African Soul: The Very Best Of Manu Dibango (1997) Torrent Download with keygen, crack, serial, dvdrip, hdrip, HD, 720p, 2014, 2015
Maybe you like: