Music of Central Asia Vol. 9 - In the footsteps of Babur: Musical encounters from the Lands of the Mughals (2010)

New Download Links
Speed
 kbps
 kbps
 kbps

Music of Central Asia Vol. 9 - In the footsteps of Babur: Musical encounters from the Lands of the Mughals (2010)
CD: World/Ethnic | FLAC lossless | cuesheets+log | covers+booklet | 1h02m41s | 328mb | DVD5: VIDEO_TS | NTSC | 720:480 | 4:3 | Audio [email protected] | English hardsubs | 32m21s | 1.71gb
Smithsonian Folkways | cat. no. SFWCD 40528


The various combinations of rubab, santur, setar, dutar and tabla were made in heaven. Watch especially the last five minutes of the video (photo 4) to see and hear what these guys can do; it hardly gets more magnificent than that. You’ll be blown away. Realize, then, that they’re improvising; finding the chemistry between each other and going with the creative flow at an awe-inspiring level.

Exploring the common ground of musical styles, sensibilities, and instruments from Central Asia, Afghanistan, and North India, five brilliant instrumentalists illuminate the musical legacy of the Mughal Empire, founded five centuries ago by Emperor Babur.







Tracks:

01. Rahul Sharma / Solo on the Santur: Raga Vachaspati [0:08:26.42]
02. Homayun Sakhi / Raga Kirwani [0:20:18.16]
03. Homayun Sakhi / Dhun: Misra Kirwani [0:06:56.33]
04. Homayun Sakhi / Zuhal's Song [0:03:19.77]
05. Homayun Sakhi / Alap on the Afghan Rubab: Raga Bhupali [0:05:55.17]
06. Homayun Sakhi / Jammu and Kashmir [0:05:25.50]
07. Sirojiddin Juraev / Bilak Uzuk [Bracelet] [0:03:17.34]
08. Mukhtor Muborakqadomov / Ruboyat-i Vanj [Rubayat of Vanj] [0:03:53.72]
09. Homayun Sakhi / Sayr-i Badakhshan [A Stroll in Badakhshan] [0:05:12.22]

Performers:

Homayun Sakhi – Afgan rubab
Rahul Sharma – santur
Salar Nader – table, zerbaghali
Sirojiddin Juraev – dutar, tanbur
Mukhtor Muborakqadomov – Badakhshani setar

EAC LOG
Exact Audio Copy V1.0 beta 3 from 29. August 2011

EAC extraction logfile from 21. May 2014, 0:30

Various / Music of Central Asia, Vol. 9: In the Footsteps of Babur, Musical Encounters from the Lands of the Mughals

Used drive : TSSTcorpCDDVDW SH-216AB Adapter: 1 ID: 0

Read mode : Secure
Utilize accurate stream : Yes
Defeat audio cache : Yes
Make use of C2 pointers : No

Read offset correction : 6
Overread into Lead-In and Lead-Out : No
Fill up missing offset samples with silence : Yes
Delete leading and trailing silent blocks : No
Null samples used in CRC calculations : Yes
Used interface : Native Win32 interface for Win NT & 2000

Used output format : User Defined Encoder
Selected bitrate : 768 kBit/s
Quality : High
Add ID3 tag : No
Command line compressor : C:Program Files (x86)Exact Audio CopyFLACFLAC.EXE
Additional command line options : -6 -V -T "ARTIST=%artist%" -T "TITLE=%title%" -T "ALBUM=%albumtitle%" -T "DATE=%year%" -T "TRACKNUMBER=%tracknr%" -T "GENRE=%genre%" -T "COMMENT=%comment%" -T "BAND=%albuminterpret%" -T "ALBUMARTIST=%albuminterpret%" -T "COMPOSER=%composer%" %haslyrics%--tag-from-file=LYRICS="%lyricsfile%"%haslyrics% -T "DISCNUMBER=%cdnumber%" -T "TOTALDISCS=%totalcds%" -T "TOTALTRACKS=%numtracks%" %hascover%--picture="%coverfile%"%hascover% %source% -o %dest% TOC of the extracted CD

Track | Start | Length | Start sector | End sector
---------------------------------------------------------
1 | 0:00.00 | 8:26.32 | 0 | 37981
2 | 8:26.32 | 20:18.12 | 37982 | 129343
3 | 28:44.44 | 6:56.25 | 129344 | 160568
4 | 35:40.69 | 3:19.58 | 160569 | 175551
5 | 39:00.52 | 5:55.13 | 175552 | 202189
6 | 44:55.65 | 5:25.38 | 202190 | 226602
7 | 50:21.28 | 3:17.26 | 226603 | 241403
8 | 53:38.54 | 3:53.54 | 241404 | 258932
9 | 57:32.33 | 5:12.17 | 258933 | 282349 Range status and errors

Selected range

Filename C:Usersastarte3. POSTmusic of central asia9 In the footsteps of baburcdVarious - Music of Central Asia, Vol. 9- In the Footsteps of Babur, Musical Encounters from the Lands of the Mughals.wav

Peak level 98.7 %
Extraction speed 7.4 X
Range quality 100.0 %
Copy CRC 6CCB7580
Copy OK

No errors occurred


AccurateRip summary

Track 1 accurately ripped (confidence 2) [C981CDF9] (AR v2)
Track 2 accurately ripped (confidence 2) [3CB104CF] (AR v2)
Track 3 accurately ripped (confidence 2) [EC8A9015] (AR v2)
Track 4 accurately ripped (confidence 2) [08EEDEB9] (AR v2)
Track 5 accurately ripped (confidence 2) [22D812C7] (AR v2)
Track 6 accurately ripped (confidence 2) [578414CA] (AR v2)
Track 7 accurately ripped (confidence 2) [5636B701] (AR v2)
Track 8 accurately ripped (confidence 2) [63289317] (AR v2)
Track 9 accurately ripped (confidence 2) [BB1FB28F] (AR v2)

All tracks accurately ripped

End of status report

==== Log checksum 5783096D7DFB89E262EB1F854E58B5DBC2AB8FC271E23CE80FDF968C4002B241 ====



Music Of Central Asia | Music Central Asia | Music From The Tea Lands Putumayo | Asia Tour 2010 In Japan Ready | Asia Tour 2010 In Japan Ready | Following The Ninth In The Footsteps Of Beethoven S Final | Footsteps Movie Torrent For Maria Conchita | Bbc In The Footsteps Of St Paul Complete Hdtv X Aac Mvgroup | Angkor Wat Lands Of God 3D | Proven Lands
Music of Central Asia Vol. 9 - In the footsteps of Babur: Musical encounters from the Lands of the Mughals (2010) Torrent Download with keygen, crack, serial, dvdrip, hdrip, HD, 720p, 2014, 2015
Maybe you like: